Kamasutra 3D 1080p 2012

 

Format : Matroska
File size : 3.77 GiB
Duration : 47mn 10s
Overall bit rate : 11.4 Mbps
Movie name : Kamasutra (2012) 3D Half-SBS
Encoded date : UTC 2012-04-03 19:25:48
Writing application : mkvmerge v5.4.0 ('Piper'wink.gif built on Mar 10 2012 13:34:39
Writing library : libebml v1.2.3 + libmatroska v1.3.0

Video
ID : 1
Format : AVC
Format/Info : Advanced Video Codec
Format profile : High@L4.1
Format settings, CABAC : Yes
Format settings, ReFrames : 2 frames
Codec ID : V_MPEG4/ISO/AVC
Duration : 47mn 10s
Bit rate : 9 814 Kbps
Width : 1 920 pixels
Height : 1 080 pixels
Display aspect ratio : 16:9
Frame rate : 23.976 fps
Color space : YUV
Chroma subsampling : 4:2:0
Bit depth : 8 bits
Scan type : Progressive
Bits/(Pixel*Frame) : 0.197
Stream size : 3.23 GiB (86%)
Writing library : x264 core
Color primaries : BT.709-5, BT.1361, IEC 61966-2-4, SMPTE RP177
Transfer characteristics : BT.709-5, BT.1361
Matrix coefficients : BT.709-5, BT.1361, IEC 61966-2-4 709, SMPTE RP177

Audio #1
ID : 2
Format : DTS
Format/Info : Digital Theater Systems
Codec ID : A_DTS
Duration : 47mn 10s
Bit rate mode : Constant
Bit rate : 960 Kbps
Channel(s) : 2 channels
Channel positions : Front: L R
Sampling rate : 48.0 KHz
Bit depth : 16 bits
Compression mode : Lossy
Stream size : 324 MiB (8%)
Language : English

Audio #2
ID : 3
Format : AC-3
Format/Info : Audio Coding 3
Mode extension : CM (complete main)
Codec ID : A_AC3
Duration : 47mn 10s
Bit rate mode : Constant
Bit rate : 448 Kbps
Channel(s) : 2 channels
Channel positions : Front: L R
Sampling rate : 48.0 KHz
Bit depth : 16 bits
Compression mode : Lossy
Stream size : 151 MiB (4%)
Language : English

=http://www.pictureshack.us[/url]

 
Download From Filepost

 

http://filepost.com/files/e6f64f2m/Kamasutra_(2012)_3D_Half-SBS.part1.rar
http://filepost.com/files/2bca7daf/Kamasutra_(2012)_3D_Half-SBS.part2.rar
http://filepost.com/files/7mem1bfc/Kamasutra_(2012)_3D_Half-SBS.part3.rar
http://filepost.com/files/142m8b34/Kamasutra_(2012)_3D_Half-SBS.part4.rar